#TITLE:Dance Prince;
#SUBTITLE:;
#ARTIST:証聲;
#TITLETRANSLIT:;
#SUBTITLETRANSLIT:;
#ARTISTTRANSLIT:;
#CREDIT:;
#BANNER:DancePrince_logo.jpg;
#BACKGROUND:DancePrince_bg.jpg;
#LYRICSPATH:;
#CDTITLE:Lan.png;
#MUSIC:Dance Prince.mp3;
#OFFSET:-0.040;
#SAMPLESTART:100.000;
#SAMPLELENGTH:12.000;
#SELECTABLE:YES;
#BPMS:0.000=158.000;
#STOPS:;
#BGCHANGES:;
// cache tags:
#FIRSTBEAT:8.000;
#LASTBEAT:395.500;
#SONGFILENAME:Songs/Super Dancer Online/Dance Prince/Dance Prince.sm;
#HASMUSIC:1;
#HASBANNER:1;
#MUSICLENGTH:154.651;
// end cache tags

//---------------dance-single - sky----------------
#NOTES:
     dance-single:
     sky:
     Hard:
     10:
     1.000,1.000,1.000,0.155,0.446,896.000,265.000,24.000,0.000,48.000:

0000
0000
0000
0000
,
0000
0000
0000
0000
,
0001
0001
0001
0001
0001
0001
0001
0001
,
0101
0100
0100
0100
0100
0100
0100
0100
,
0010
0010
0010
0010
0010
0010
0010
0010
,
1000
1000
1000
1000
0010
0010
0010
0010
,
1010
1010
0100
0001
1100
0010
1100
1100
,
1100
1100
0010
0100
0011
1000
0110
0110
,
0110
0110
1000
0010
1001
0100
1010
1010
,
1010
1010
0100
1000
0011
0010
1100
0010
,
1100
1100
0001
0010
0101
0010
1100
1100
,
1100
1100
0010
1000
0101
0010
0110
0110
,
0110
0110
1000
0100
1001
0010
0101
0101
,
0101
0101
1000
0010
1100
0100
0011
0100
,
0011
0011
0100
0001
1010
1000
0110
0110
,
0110
0110
0001
0010
1100
0100
0011
0011
,
0011
0011
0100
0010
1100
0100
0011
0011
,
0110
0000
1000
0000
0110
0000
0001
0000
0110
0110
0110
0110
0110
0110
0110
0110
,
0110
0000
0001
0000
1010
0000
0010
0000
1000
0100
1000
0100
1010
0000
0001
0000
,
1100
0000
0010
0000
0101
0000
0010
0000
1000
0100
0010
0100
0011
0000
0100
0000
,
1100
0000
0001
0000
0110
0000
0010
0000
1000
0100
0010
0100
0011
0000
0010
0000
,
1100
0000
0010
0000
0101
0000
1000
0000
0010
0001
0100
0010
1100
0000
0010
0000
,
0101
0000
0010
0000
1100
0000
0010
0000
0100
0010
1000
0100
0011
0000
0100
0000
,
1100
0000
0001
0000
0110
0000
0010
0000
0001
0010
0100
0010
0101
0000
1000
0000
,
0110
0000
0001
0000
1010
0000
0100
0000
1000
0010
0100
0010
1100
0000
0001
0000
,
0110
0000
0001
0000
0101
0000
0010
0000
0100
0010
0100
0010
0011
0000
1000
0000
,
0110
0000
0001
0000
1100
0000
0100
0000
1000
0100
1000
0100
0011
0000
0100
0000
,
0011
0000
0100
0000
1010
0000
0010
0000
0100
0010
0100
0010
0101
0000
1000
0000
,
0110
0000
0001
0000
1100
0000
0010
0000
0100
0001
0010
0001
0110
0000
0010
0000
,
1100
0000
0001
0000
0110
0000
0010
0000
1000
0100
0010
0100
1001
0000
0010
0000
,
1100
0000
0001
0000
0110
0000
1000
0000
0100
0001
0010
0100
1010
0000
0100
0000
,
0101
0000
1000
0000
0110
0000
1000
0000
0010
0001
0010
0001
1100
0000
0010
0000
,
0110
0000
0001
0000
1100
0000
0010
0000
0001
0010
0001
0010
1100
0000
0010
0000
,
1001
0001
0001
0001
0101
0001
0001
0001
1001
0001
0001
0001
0101
0001
0001
0001
,
1201
0010
0011
0001
1010
0010
0011
0010
,
2301
0010
0110
0001
0011
0100
0011
0001
,
3210
0010
1010
0010
0011
1000
1010
0001
,
1320
0001
0101
0100
1100
0100
1001
0100
,
1032
0100
1100
0010
0110
1000
1100
0100
,
1023
0001
0101
1000
1100
0100
1001
0100
,
1230
0001
1010
0010
0011
0010
1010
0010
,
2301
0000
0010
0000
0110
0000
0010
0000
0101
0100
0100
0100
0011
0001
0001
0001
,
3120
0000
0100
0000
1000
0000
0100
0000
1000
0100
1000
0100
1000
0000
0001
0000
,
0231
0000
0001
0000
0010
0000
1000
0000
0010
0001
0010
0001
1000
0000
0010
0000
,
0312
0000
1000
0000
0100
0000
0010
0000
0100
1000
0100
1000
0100
0000
0010
0000
,
1203
0000
0010
0000
1000
0000
0001
0000
0010
1000
0010
0001
0010
0000
1000
0000
,
0302
0000
0010
0000
1000
0000
0100
0000
1000
0100
0010
0100
1000
0000
0010
0000
,
2103
0000
0010
0000
0100
0000
0001
0000
0010
0001
0010
0001
0010
0000
0100
0000
,
3210
0000
0001
0000
0010
0000
1000
0000
0001
0010
0001
0010
1000
0000
0010
0000
,
2301
0000
0010
0000
0100
0000
0001
0000
0100
0100
0100
0100
0110
0010
0010
0010
,
3012
0000
0100
0000
1000
0000
0100
0000
0010
1000
0100
0010
0100
0000
1000
0000
,
2013
0000
0100
0000
0010
0000
0001
0000
0010
0001
0100
0010
0100
0000
0001
0000
,
3012
0000
0100
0000
1000
0000
0100
0000
1000
0100
1000
0100
0010
0000
0100
0000
,
1023
0000
0100
0000
1000
0000
0001
0000
0100
1000
0100
1000
0001
0000
0100
0000
,
2030
0000
0010
0000
0100
0000
0001
0000
0010
0100
0010
0100
0001
0000
0010
0000
,
3102
0000
0010
0000
1000
0000
0100
0000
1000
0100
1000
0100
0010
0000
0100
0000
,
2013
0010
0010
0010
0010
0010
0010
0010
0010
0010
0010
0010
0010
0010
0010
0010
,
3201
0001
0001
0001
0001
0001
0001
0001
0001
0001
0001
0001
0001
0001
0001
0001
,
1301
0100
1100
0010
0101
0010
1100
0100
,
0011
0100
1010
0001
0110
0010
1100
0010
,
0110
0001
1010
0100
1100
0010
0101
0010
,
1100
0010
0101
0010
1100
0100
0110
0010
,
0011
0100
1010
0100
0110
0001
1010
0100
,
0011
0100
1010
0100
0110
0001
0110
0010
,
1100
0010
0101
0010
1001
0100
1100
0100
,
0011
0100
0100
0000
0011
0100
0100
0000
0011
0100
0100
0000
0011
0100
0100
0000
,
0011
1000
0110
0100
1010
0100
0011
0100
,
1010
0100
0011
0010
0101
0010
1100
0100
,
1001
0010
0110
0010
0101
1000
0110
0001
,
1010
0100
0101
0010
1100
0010
0101
0010
,
1100
0010
0110
0010
1100
0100
0101
0010
,
0110
0001
1100
0010
1100
0100
1001
0100
,
0110
0001
1100
0010
1010
0100
1100
0100
,
0011
0100
0100
0000
0011
0100
0100
0000
0011
0100
0100
0000
0011
0100
0100
0000
,
1001
0000
0000
0000
0110
0000
0000
0000
1100
0100
0100
0000
1100
0000
0000
0000
,
0011
0000
0000
0000
0110
0000
0000
0000
1001
0001
0001
0000
0110
0000
0000
0000
,
1100
0000
0000
0000
0011
0000
0000
0000
0110
0100
0100
0000
0011
0000
0000
0000
,
1001
0000
0000
0000
1100
0000
0000
0000
0011
0010
0010
0000
1010
0000
0000
0000
,
0110
0000
0000
0000
0011
0000
0000
0000
1001
1000
1000
0000
0110
0000
0000
0000
,
0011
0000
0000
0000
0110
0000
0000
0000
1010
0010
0010
0000
0011
0000
0000
0000
,
1010
1000
1001
1000
1010
1000
1001
1000
1010
1000
1001
1000
1010
1000
1001
1000
,
0110
0010
0010
0010
0110
0010
0010
0010
0110
0010
0010
0010
0110
0010
0010
0010
,
0110
0000
1000
0000
0100
0000
0010
0000
0100
0100
0100
0000
1000
0000
0010
0000
,
0100
0000
0001
0000
0010
0000
0100
0000
1000
1000
1000
0000
0100
0000
0001
0000
,
0010
0000
0100
0000
1000
0000
0010
0000
0100
0100
0100
0000
0001
0000
0010
0000
,
1000
0000
0010
0000
0100
0000
0001
0000
0010
0010
0010
0000
0100
0000
1000
0000
,
0100
0000
0001
0000
0010
0000
0100
0000
0010
0010
0010
0000
0100
0000
1000
0000
,
0010
0000
0100
0000
0001
0000
0010
0000
0100
0100
0100
0000
1000
0000
0010
0000
,
0100
0000
0001
0000
0100
0000
1000
0000
0100
0100
0100
0000
0010
0000
0001
0000
,
0010
0000
0100
0000
0010
0000
0001
0000
0100
0100
0100
0000
0010
0000
0100
0000
,
1000
0000
0010
0000
0100
0000
0001
0000
0010
0010
0010
0000
0100
0000
0010
0000
,
1000
0000
0100
0000
0001
0000
0010
0000
0100
0100
0100
0000
0010
0000
1000
0000
,
0100
0000
0001
0000
0010
0000
0100
0000
0010
0010
0010
0000
0100
0000
1000
0000
,
0011
0100
0011
0100
0011
0100
0011
0100
,
1000
0000
0010
0000
0100
0000
0010
0000
0010
0010
0010
0000
0100
0000
0001
0000
,
0010
0000
0100
0000
1000
0000
0010
0000
0100
0100
0100
0000
0001
0000
0010
0000
,
1000
0000
0010
0000
0100
0000
0001
0000
1000
1000
1000
0000
0100
0000
0001
0000
,
0010
0000
1000
0000
0100
0000
0010
0000
1000
1000
1000
0000
0001
0000
0010
0000
,
1000
0000
0100
0000
0010
0000
0100
0000
0010
0010
0010
0000
0100
0000
0001
0000
;
